Инстинкт выживания (2 сезон: 6 серирй из 6) / Primal Survivor (Саймон Мюриэль, Алекс Паркинсон, Бен Саутуэлл / Simon Muriel, Alex Parkinson, Ben Southwell) [2017, Документальный, приключения, WEB-DL 1080p], National Geographic

Ответить на тему
Статистика раздачи
Размер:  23.87 GB   |    Зарегистрирован:  1 месяц 30 дней   |    Скачан:  0 раз

Полного источника не было: Никогда

 
   
 
 
Автор Сообщение

star21 ®

Пол: Женский

Стаж: 4 года 7 месяцев

Сообщений: 551945

Откуда: Екатеринбург

Создавать темы 06-Май-2020 00:20

[Цитировать]

Инстинкт выживания (2 сезон: 6 серирй из 6) / Primal Survivor
Год выпуска: 2017
Страна: Великобритания
Студия: Icon Films
Жанр: Документальный, приключения
Продолжительность: 6 x 00:44:00
Перевод: Студийный (одноголосый закадровый)
Русские субтитры: нет
Режиссер: Саймон Мюриэль, Алекс Паркинсон, Бен Саутуэлл, Алистэр Смит, Хонор Питерс / Simon Muriel, Alex Parkinson, Ben Southwell, Alistair Smith, Honor Peters
Описание: Его зовут Хэйзен Одел и он - инструктор по выживанию и проводник по дикой местности. Он жил и обучался в разных племенах по всему миру, благодаря чему он овладел удивительными методами выживания в природе, свойственных коренному населению. Теперь он путешествует по самым удаленным уголкам планеты, чтобы подвергнуть суровым испытаниям свои знания, навыки и выносливость в экстремальных условиях...
Доп. информация: Релиз:
и
Сэмпл: https://dropmefiles.com/7Ga6k
Тип релиза: WEB-DL 1080p
Контейнер: MKV
Видео: 1920x1080 at 25.000 fps, MPEG-4 AVC, ~12.8 Mbps avg
Аудио: Русский: 48 kHz, AC3, 2/0 (L,R) ch, ~192.00 kbps avg | Студия Велес, текст читает Олег Федоров |
Аудио 2: English: 48 kHz, E-AC3 5.1 (Front: L C R, Side: L R, LFE) ch, ~640.00 kbps avg

Список эпизодов

01. Жертвоприношение в джунглях / Jungle Sacrifice. Хэйзен Одел отправляется в изнурительную миссию через густые джунгли острова Сибирт, который расположене возле Суматры, чтобы присоединиться к группе охотников из племени Минтавай в их ритуальной охоте на свиней.
02. Смертельная пустыня / Deadly Desert. Хэйзен Одел отправляется в изнурительный поход по пустыням северной Намибии, чтобы доставлить священный дар племени Химба, которое живет в бесплодных дюнах.
03. Ад в саванне / Outback Inferno. Хэйзен Одел отправляется в безжалостную, опустошенную солнцем австралийскую саванну в поисках скрытого оазиса с водой.
04. Враждебный каньон / Hostile Canyon. В самом глубоком каньоне Северной Америки Хэйзен Одел в одиночку предпринимает смертельно опасное путешествие. Он обследует гористую местность и отвесные ущелья, будучи обутым в сандалии, которые носят индейцы из племени Рарамури.
05. Моря-убийцы / Killer Seas. В бурлящих водах удаленного вулканического острова Понгсо Но Тао исследователь Хэйзен начинает свое уникальное путешествие по океану в маленькой традиционной деревянной лодочке под названием татала.
06. Метель-убийца / Killer Blizzard. Хэйзен Одел предпринимает изнурительное путешествие по диким замерзшим и смертельно опасным местам Северной Канады в поисках постоянно мигрирующего стада северных оленей карибу.

MediaInfo

Complete name               : S02E01.Jungle.Sacrifice.1080p.WEB-DL.Rus.Eng-BLUEBIRD.mkvFormat                      : MatroskaFormat version              : Version 4File size                   : 4.19 GiBDuration                    : 44 min 7 sOverall bit rate mode       : VariableOverall bit rate            : 13.6 Mb/sEncoded date                : UTC 2020-04-12 07:55:07Writing application         : mkvmerge v42.0.0 ('Overtime') 64-bitWriting library             : libebml v1.3.10 + libmatroska v1.5.2
VideoID : 1Format : AVCFormat/Info : Advanced Video CodecFormat profile : High@L4Format settings : CABAC / 4 Ref FramesFormat settings, CABAC : YesFormat settings, Reference : 4 framesCodec ID : V_MPEG4/ISO/AVCDuration : 44 min 7 sBit rate mode : VariableBit rate : 12.8 Mb/sMaximum bit rate : 15.0 Mb/sWidth : 1 920 pixelsHeight : 1 080 pixelsDisplay aspect ratio : 16:9Frame rate mode : ConstantFrame rate : 25.000 FPSColor space : YUVChroma subsampling : 4:2:0Bit depth : 8 bitsScan type : ProgressiveBits/(Pixel*Frame) : 0.246Stream size : 3.93 GiB (94%)Title : MPEG-4 AVC Video / 12.8 Mbps / 1080p / 25.000 fps / 16:9 / High Profile 4Language : EnglishDefault : YesForced : NoColor range : LimitedColor primaries : BT.709Transfer characteristics : BT.709Matrix coefficients : BT.709
Audio #1ID : 2Format : AC-3Format/Info : Audio Coding 3Commercial name : Dolby DigitalCodec ID : A_AC3Duration : 44 min 6 sBit rate mode : ConstantBit rate : 192 kb/sChannel(s) : 2 channelsChannel layout : L RSampling rate : 48.0 kHzFrame rate : 31.250 FPS (1536 SPF)Compression mode : LossyStream size : 60.6 MiB (1%)Title : rus / AC3 / 2.0 / 48 kHz / 192 kbps / 16-bitLanguage : RussianService kind : Complete MainDefault : YesForced : Yes
Audio #2ID : 3Format : E-AC-3Format/Info : Enhanced AC-3Commercial name : Dolby Digital PlusCodec ID : A_EAC3Duration : 44 min 6 sBit rate mode : ConstantBit rate : 640 kb/sChannel(s) : 6 channelsChannel layout : L R C LFE Ls RsSampling rate : 48.0 kHzFrame rate : 31.250 FPS (1536 SPF)Compression mode : LossyStream size : 202 MiB (5%)Title : eng / EAC3 / 5.1 / 48 kHz / 640 kbps / 16-bitLanguage : EnglishService kind : Complete MainDefault : NoForced : No

Скриншоты



Благодарность

Релиз выполнен на основе Primal Survivor S02 1080p AMZN WEB-DL DD+5.1 x264 -Cinefeel

Чтобы скачать этот контент, Вам необходимо:
1. Скачать и установить торрент-клиент [клик для Windows], (для мобильного найдите на Play Маркет).
2. Кликнуть по [Скачать]


Внимание.
Если проверка ВЫ НЕ РОБОТ - не работает, значит Вы используете устаревший браузер.
Установите актуальный браузер и повторно кликните по [Скачать]

Запрещён Яндекс браузер. Загрузка файлов им является ошибочной.
Безопасность: торрент-клиент разрешён АВ Касперского.

[mysql.shop.asmlocator.ru].t731643.torrent 
Торрент: Зарегистрирован [ 2020-05-06 00:20 ] · E7BE77F76F15079E1E4B1CD9633732A789DD0A4E

Скачать .torrent

Скачать

120 KB

Статус: проверено
Скачан: 0 раз
Размер: 23.87 GB
terms.php
[Профиль] [ЛС]
Показать сообщения:    
Ответить на тему

Текущее время: 05-Июл 07:52

Часовой пояс: UTC ± 0



Вы не можете начинать темы
Вы не можете отвечать на сообщения
Вы не можете редактировать свои сообщения
Вы не можете удалять свои сообщения
Вы не можете голосовать в опросах
Вы не можете прикреплять файлы к сообщениям
Вы можете скачивать файлы
Верим фактам, а не вранью Путина! Факт, что Правительство ведёт Россию к истреблению.
Так как численность населения падает, даже не смотря на приток эмигрантов!
Русская нация вымирает и вырождается, смешиваясь с эмигрантами!
Факт, что военных и граждан предприятий заставляют голосовать за партию Единая Россия и Путина
ПОД СТРАХОМ УВОЛЬНЕНИЯ!
Нам не нужно Правительство, блокирующее личную жизнь, интернет, нарушающее сохранность данных.
Все эти действия финансируются за счёт народа!