Тет-а-тет-а-тет / Tête à Tête à Tête / Tete a Tete a Tete (Марв Ньюленд / Marv Newland) [2005, США, Канада, короткометражка, WEB-DL]

Ответить на тему
Статистика раздачи
Размер:  108 MB   |    Зарегистрирован:  2 месяца 24 дня   |    Скачан:  0 раз

Полного источника не было: Никогда

 
   
 
 
Автор Сообщение

star21 ®

Пол: Женский

Стаж: 4 года 8 месяцев

Сообщений: 551945

Откуда: Екатеринбург

Создавать темы 20-Апр-2020 00:45

[Цитировать]

Тет-а-тет-а-тет / Tête à Tête à Tête / Tete a Tete a Tete
Страна: США, Канада
Жанр: короткометражка
Продолжительность: 12:50
Год выпуска: 2005
Перевод: Не требуется
Русские субтитры: нет
Режиссёр: Марв Ньюленд / Marv Newland
Описание: Аниматор и режиссер Марв Ньюленд исследует концепцию собственного разума, независимо от того, со скольким количеством разумов в теле вы родились. В этом игривом фильме пчелы в унисон посещают цветы, птицы совершают синхронизированные посадки на фонтанчиках, а соседская трехголовая кошка радостно подходит, чтобы ее погладили. Жизнь плавает в разноцветных облаках гармонии, пока простой конфликт не угрожает разрушить этот идиллический мир.
Тет-а-тет-а-тет происходит в другом мире, где конфликты являются предметом реальной жизни. Ньюлэнд исследует нашу тенденцию судить других за отличия и то, как нетерпимость может угрожать отношениям и даже привести к насилию. Этот фильм - глубокомысленное эссе том, как существа взаимодействуют.
Источник рипа: https://www.nfb.ca/film/tete_a_tete_a_tete_en/

Сравнение с другой раздачей

Другая раздача: https://rutracker.org/forum/viewtopic.php?t=1184094 :

На картинке другая раздача слева, данная — справа.
У другой раздачи размер картинки чуть больше, но изображение замылено.
У обоих видео фактическое соотношение сторон 4:3, края одинаково обрезаны.
Параметры другой раздачи:
Видео: 592x448 (1.32:1), 25 fps, XviD build 47 ~1165 kbps avg, 0.18 bit/pixel
Аудио: 48 kHz, MPEG Layer 3, 2 ch, ~128.00 kbps avg
Качество: WEB-DL
Формат: MP4
Видео: 704x396 (16:9), 23.976 fps, AVC, 1044 kbps
Аудио: 44.1 KHz, AAC LC, 2 ch, 128 kbps
Субтитры: отсутствуют

Подробные технические данные

GeneralComplete name               : D:\Video\Tete a tete a tete.mp4Format                      : MPEG-4Format profile              : Base MediaCodec ID                    : isom (isom/iso2/avc1/mp41)File size                   : 108 MiBDuration                    : 12 min 49 sOverall bit rate            : 1 178 kb/sWriting application         : Lavf58.29.100
VideoID : 1Format : AVCFormat/Info : Advanced Video CodecFormat profile : Main@L3.1Format settings : CABAC / 4 Ref FramesFormat settings, CABAC : YesFormat settings, Reference : 4 framesCodec ID : avc1Codec ID/Info : Advanced Video CodingDuration : 12 min 49 sBit rate : 1 044 kb/sWidth : 704 pixelsHeight : 396 pixelsDisplay aspect ratio : 16:9Frame rate mode : VariableFrame rate : 23.976 (23976/1000) FPSMinimum frame rate : 23.974 FPSMaximum frame rate : 23.981 FPSColor space : YUVChroma subsampling : 4:2:0Bit depth : 8 bitsScan type : ProgressiveBits/(Pixel*Frame) : 0.156Stream size : 95.7 MiB (89%)Writing library : x264 core 146 r2538 121396cEncoding settings : cabac=1 / ref=1 / deblock=1:0:0 / analyse=0x1:0x111 / me=hex / subme=5 / psy=1 / psy_rd=1.00:0.00 / mixed_ref=0 / me_range=16 / chroma_me=1 / trellis=1 / 8x8dct=0 / cqm=0 / deadzone=21,11 / fast_pskip=1 / chroma_qp_offset=0 / threads=4 / lookahead_threads=1 / sliced_threads=0 / nr=0 / decimate=1 / interlaced=0 / bluray_compat=0 / constrained_intra=0 / bframes=3 / b_pyramid=2 / b_adapt=1 / b_bias=0 / direct=1 / weightb=1 / open_gop=0 / weightp=2 / keyint=48 / keyint_min=20 / scenecut=40 / intra_refresh=0 / rc_lookahead=40 / rc=abr / mbtree=1 / bitrate=1044 / ratetol=1.0 / qcomp=0.60 / qpmin=10 / qpmax=50 / qpstep=4 / vbv_maxrate=1500 / vbv_bufsize=1200 / nal_hrd=none / filler=0 / ip_ratio=1.41 / aq=1:1.00Codec configuration box : avcC
AudioID : 2Format : AAC LCFormat/Info : Advanced Audio Codec Low ComplexityCodec ID : mp4a-40-2Duration : 12 min 49 sBit rate mode : ConstantBit rate : 128 kb/sChannel(s) : 2 channelsChannel layout : L RSampling rate : 44.1 kHzFrame rate : 43.066 FPS (1024 SPF)Compression mode : LossyStream size : 11.7 MiB (11%)Default : YesAlternate group : 1

Скриншоты

Чтобы скачать этот контент, Вам необходимо:
1. Скачать и установить торрент-клиент [клик для Windows], (для мобильного найдите на Play Маркет).
2. Кликнуть по [Скачать]


Внимание.
Если проверка ВЫ НЕ РОБОТ - не работает, значит Вы используете устаревший браузер.
Установите актуальный браузер и повторно кликните по [Скачать]

Запрещён Яндекс браузер. Загрузка файлов им является ошибочной.
Безопасность: торрент-клиент разрешён АВ Касперского.

[mysql.shop.asmlocator.ru].t726819.torrent 
Торрент: Зарегистрирован [ 2020-04-20 00:45 ] · 4703297177AD1B01180AB595752F5FB122C4742E

Скачать .torrent

Скачать

17 KB

Статус: проверено
Скачан: 0 раз
Размер: 108 MB
terms.php
[Профиль] [ЛС]
Показать сообщения:    
Ответить на тему

Текущее время: 14-Июл 17:27

Часовой пояс: UTC ± 0



Вы не можете начинать темы
Вы не можете отвечать на сообщения
Вы не можете редактировать свои сообщения
Вы не можете удалять свои сообщения
Вы не можете голосовать в опросах
Вы не можете прикреплять файлы к сообщениям
Вы можете скачивать файлы