Мир Кролика Питера и Его Друзей / Приключения Кролика Питера и его друзей / Питер Пуш / The World of Peter Rabbit and Friends / Сезон: 1 / Серии: 3 из 10 (Диана Джексон / Dianne Jackson) [1992, Великобритания, Мультсериал, VHSRip] AVO

Ответить на тему
Статистика раздачи
Размер:  3.4 GB   |    Зарегистрирован:  3 месяца 13 дней   |    Скачан:  0 раз

Полного источника не было: Никогда

 
   
 
 
Автор Сообщение

star21 ®

Пол: Женский

Стаж: 4 года 7 месяцев

Сообщений: 551945

Откуда: Екатеринбург

Создавать темы 19-Мар-2020 22:50

[Цитировать]

Мир Кролика Питера и Его Друзей / Приключения Кролика Питера и его друзей / Питер Пуш / The World of Peter Rabbit and Friends
Страна: Великобритания
Жанр: Мультсериал
Продолжительность серии: 00:25:00
Год выпуска: 1992
Перевод: Авторский (одноголосый закадровый) возможно Дольский
Русские субтитры: нет
Режиссёр: Диана Джексон / Dianne Jackson
Роли озвучивали: Нив Кьюсак
Енн Рейтел
Шила Стифел
Сюзанн Бонетти
Ричард Гриффитс
Мэри Джейн Бове
Джун Уотсон
Дженни Мур
Сара Вулкок
Описание: Экранизация сказок британской детской писательницы и художницы Беатрис Поттер.
Будет интересен как детям, так и взрослым по причине невероятно красивой рисовки, а местами и весьма тонкого юмора.
Список серий:
Эпизод 1
The Tale of Peter Rabbit and Benjamin Bunny
Эпизод 2
The Tale of Samuel Whiskers or The Roly-Poly Pudding
Эпизод ???
не могу определить.
Доп. информация: Оцифровка VHS (личный архив) и получение VHSRip alenavova
Эксклюзив для rutracker.org. При размещении данного релиза на других сайтах ссылка на автора alenavova обязательна.

Релиз
Семпл: https://yadi.sk/d/YTf80SJ_2XV38w
Качество: VHSRip
Формат: MP4
Видео: MPEG2 Video 720x576 (4:3) 25fps Bit rate 6 000 kb/s
Аудио: MPEG Audio 48000Hz stereo 192kbps
Субтитры: отсутствуют

Подробные технические данные

Приключчения Кролика Питера и его друзей [by alenavova]\1.mpgFormat                         : MPEG-PSFile size                      : 1.13 GiBDuration                       : 25 min 49 sOverall bit rate mode          : VariableOverall bit rate               : 6 278 kb/sWriting library                : (dvd5: Oct 27 2015)
VideoID : 224 (0xE0)Format : MPEG VideoFormat version : Version 2Format profile : Main@MainFormat settings : CustomMatrix / BVOPFormat settings, BVOP : YesFormat settings, Matrix : CustomFormat settings, GOP : M=3, N=15Duration : 25 min 49 sBit rate mode : VariableBit rate : 6 000 kb/sWidth : 720 pixelsHeight : 576 pixelsDisplay aspect ratio : 4:3Frame rate : 25.000 FPSStandard : PALColor space : YUVChroma subsampling : 4:2:0Bit depth : 8 bitsScan type : ProgressiveCompression mode : LossyBits/(Pixel*Frame) : 0.579Time code of first frame : 00:00:00:00Time code source : Group of pictures headerGOP, Open/Closed : OpenGOP, Open/Closed of first fram : ClosedStream size : 1.08 GiB (95%)Writing library : (dvd5: Oct 27 2015)
AudioID : 192 (0xC0)Format : MPEG AudioFormat version : Version 1Format profile : Layer 2Duration : 25 min 49 sBit rate mode : ConstantBit rate : 192 kb/sChannel(s) : 2 channelsSampling rate : 48.0 kHzFrame rate : 41.667 FPS (1152 SPF)Compression mode : LossyDelay relative to video : 56 msStream size : 35.5 MiB (3%)

Скриншоты

Предыдущие и альтернативные раздачи

Чтобы скачать этот контент, Вам необходимо:
1. Скачать и установить торрент-клиент [клик для Windows], (для мобильного найдите на Play Маркет).
2. Кликнуть по [Скачать]


Внимание.
Если проверка ВЫ НЕ РОБОТ - не работает, значит Вы используете устаревший браузер.
Установите актуальный браузер и повторно кликните по [Скачать]

Запрещён Яндекс браузер. Загрузка файлов им является ошибочной.
Безопасность: торрент-клиент разрешён АВ Касперского.

[mysql.shop.asmlocator.ru].t717755.torrent 
Торрент: Зарегистрирован [ 2020-03-19 22:50 ] · 50543997208DD9D4B3B392BEE98A0F0D56E4B9C9

Скачать .torrent

Скачать

18 KB

Статус: проверено
Скачан: 0 раз
Размер: 3.4 GB
terms.php
[Профиль] [ЛС]
Показать сообщения:    
Ответить на тему

Текущее время: 02-Июл 08:59

Часовой пояс: UTC ± 0



Вы не можете начинать темы
Вы не можете отвечать на сообщения
Вы не можете редактировать свои сообщения
Вы не можете удалять свои сообщения
Вы не можете голосовать в опросах
Вы не можете прикреплять файлы к сообщениям
Вы можете скачивать файлы
Верим фактам, а не вранью Путина! Факт, что Правительство ведёт Россию к истреблению.
Так как численность населения падает, даже не смотря на приток эмигрантов!
Русская нация вымирает и вырождается, смешиваясь с эмигрантами!
Факт, что военных и граждан предприятий заставляют голосовать за партию Единая Россия и Путина
ПОД СТРАХОМ УВОЛЬНЕНИЯ!
Нам не нужно Правительство, блокирующее личную жизнь, интернет, нарушающее сохранность данных.
Все эти действия финансируются за счёт народа!